Ленина маникюр сотрудничество

Ленина маникюр сотрудничество
Ленина маникюр сотрудничество
Ленина маникюр сотрудничество

Вадим Горелов | Улетные Вирусные Открытки (2013) [PCRec] Автор (режиссер): Вадим Горелов
Название: Улетные Вирусные Открытки
Год выпуска: 2013
Жанр: Обучающий видеокурс
Продолжительность: 04:04:11
Качество видео: PCRec
Видеокодек: AVC
Битрейт видео: 30fps 4346kbps
Размер кадра: 1298x730
Аудиокодек: AAC
Битрейт аудио: 44100Hz stereo 53kbps
Доп.материалы: Имеются

Описание:
Этот эксклюзивный видеокурс наконец-то научит Вас создавать музыкальные поздравительные открытки-сайты, а также узнаете, как привлекать с помощью них огромный бесплатный трафик на ваши ресурсы.

Из видео, Вы узнаете:
• Как за 20 минут создать первоклассную открытку к празднику.
• Как сделать открытку музыкальной и разместить на ней mp3 плеер.
• Где искать нужную информацию для открытки.
• Как работать в программе, которая создает одностраничные сайты.

Этот курс идеально подойдет:
• Всем, кто хочет получать удовольствие от творчества и при этом зарабатывать серьезные деньги, создавая поздравительные открытки.
• Всем желающим использовать новейшие приемы Вирусного Маркетинга, чтобы получить тысячи клиентов или подписчиков совершенно бесплатно.
• Всем, кто хочет оригинальным способом продвигать свои товары и услуги.
• Вам, если Вы мечтаете хорошо зарабатывать и повысить узнаваемость своего бренда.
• Всем, кто ведет свой бизнес в интернет.

С помощью видеокурса Вы сможете:
• Научиться делать шикарные поздравительные открытки и радовать своих друзей и близких.
• Создавать оригинальные открытки на заказ и зарабатывать от 500 до 5000 рублей за одну открытку.
• БЫСТРО заработать "живые деньги", используя готовые шаблоны открыток и мини-сайт.
• Узнать, как ПОКОНЧИТЬ с безызвестным прозябанием Вашего ресурса раз и навсегда и наслаждаться постоянным притоком трафика и, конечно же, доходами, которые придут вместе с этим.

Общее
Полное имя : D:\Андрей\uletnye_otkrytki
Формат : MPEG-4
Профиль формата : Base Media / Version 2
Идентификатор кодека : mp42
Размер файла : 1,32 Гбайт
Общий поток : 4403 Кбит/сек
Дата кодирования : UTC 2013-06-08 16:58:19
Дата пометки : UTC 2013-06-08 16:58:19

Видео
Идентификатор : 1
Формат : AVC
Формат/Информация : Advanced Video Codec
Профиль формата : High@L3.2
Параметр CABAC формата : Да
Параметр ReFrames формата : 4 кадра
Идентификатор кодека : avc1
Идентификатор кодека/Информация : Advanced Video Coding
Продолжительность оригинала : 43 м.
Вид битрейта : Переменный
Битрейт : 4346 Кбит/сек
Ширина : 1298 пикселей
Высота : 730 пикселей
Соотношение сторон : 16:9
Режим частоты кадров : Постоянный
Частота кадров : 30,000 кадров/сек
Стандарт вещания : NTSC
Цветовое пространство : YUV
Субдискретизация насыщенности : 4:2:0
Битовая глубина : 8 бит
Тип развёртки : Прогрессивная
Бит/(ПикселиКадры) : 0.147
Размер потока : 1,25 Гбайт (95%)
Размер потока оригинала : 1,31 Гбайт (99%)
Язык : English
Дата кодирования : UTC 2013-06-08 16:58:19
Дата пометки : UTC 2013-06-08 16:58:19
mdhd_Duration : 2585552
Основные цвета : BT.709
Характеристики трансфера : BT.709
Коэффициенты матрицы : BT.709

Аудио
Идентификатор : 2
Формат : AAC
Формат/Информация : Advanced Audio Codec
Профиль формата : LC
Идентификатор кодека : 40
Продолжительность оригинала : 43 м.
Вид битрейта : Постоянный
Битрейт : 53,6 Кбит/сек
Каналы : 2 канала
Расположение каналов : Front: L R
Частота : 44,1 КГц
Метод сжатия : С потерями
Размер потока : 16,5 Мбайт (1%)
Размер потока оригинала : 16,5 Мбайт (1%)
Язык : English
Дата кодирования : UTC 2013-06-08 16:58:19
Дата пометки : UTC 2013-06-08 16:58:19
mdhd_Duration : 2581854

Скриншоты:

Время раздачи: 24/7 (круглосуточно)

Ленина маникюр сотрудничество Ленина маникюр сотрудничество Ленина маникюр сотрудничество Ленина маникюр сотрудничество Ленина маникюр сотрудничество Ленина маникюр сотрудничество Ленина маникюр сотрудничество Ленина маникюр сотрудничество Ленина маникюр сотрудничество Ленина маникюр сотрудничество Ленина маникюр сотрудничество

Изучаем далее:



Как сделать презентацию про школу

Схема вязания полукомбинезона спицами

Автобиография и ее схема

Вышивки схемы открыток

Как сделать заготовки из чесночных стрелок